spytug.16.01.29.girl.51.mp4 full body sensual massage

 full body sensual massage

Download: http://rapidgator.net/file/94af149a9330d497cc730766b3a1a4b2/8rp_sg1ag.7z.html
Archive key: 8rp
Technical details

General
Complete name                            : /tmp/spytug.16.01.29.girl.51.mp4/spytug.16.01.29.girl.51.mp4
Format                                   : MPEG-4
Format profile                           : Base Media
Codec ID                                 : isom (isom/iso2/avc1/mp41)
File size                                : 618 MiB
Duration                                 : 10mn 24s
Overall bit rate mode                    : Variable
Overall bit rate                         : 8 307 Kbps
Movie name                               : RARBG.COM - SpyTug.16.01.29.Girl.51.XXX.1080p.MP4-KTR
Encoded date                             : UTC 1904-01-01 00:00:00
Tagged date                              : UTC 1904-01-01 00:00:00
Writing application                      : Lavf56.40.101
Comment                                  : RARBG.COM - SpyTug.16.01.29.Girl.51.XXX.1080p.MP4-KTR

Video
ID                                       : 1
Format                                   : AVC
Format/Info                              : Advanced Video Codec
Format profile                           : Main@L4
Format settings, CABAC                   : No
Format settings, ReFrames                : 2 frames
Codec ID                                 : avc1
Codec ID/Info                            : Advanced Video Coding
Duration                                 : 10mn 24s
Bit rate mode                            : Variable
Bit rate                                 : 8 048 Kbps
Maximum bit rate                         : 768 Kbps
Width                                    : 1 920 pixels
Height                                   : 1 080 pixels
Display aspect ratio                     : 16:9
Frame rate mode                          : Constant
Frame rate                               : 29.970 (30000/1001) fps
Original frame rate                      : 25.000 fps
Color space                              : YUV
Chroma subsampling                       : 4:2:0
Bit depth                                : 8 bits
Scan type                                : Progressive
Bits/(Pixel*Frame)                       : 0.130
Stream size                              : 599 MiB (97%)
Encoded date                             : UTC 1904-01-01 00:00:00
Tagged date                              : UTC 1904-01-01 00:00:00
Color range                              : Limited
Color primaries                          : BT.709
Transfer characteristics                 : BT.709
Matrix coefficients                      : BT.709

Audio
ID                                       : 2
Format                                   : AAC
Format/Info                              : Advanced Audio Codec
Format profile                           : LC
Codec ID                                 : 40
Duration                                 : 10mn 24s
Bit rate mode                            : Variable
Bit rate                                 : 251 Kbps
Maximum bit rate                         : 256 Kbps
Channel(s)                               : 2 channels
Channel positions                        : Front: L R
Sampling rate                            : 44.1 KHz
Frame rate                               : 43.066 fps (1024 spf)
Compression mode                         : Lossy
Stream size                              : 18.7 MiB (3%)
Language                                 : English
Default                                  : Yes
Alternate group                          : 1
Encoded date                             : UTC 1904-01-01 00:00:00
Tagged date                              : UTC 1904-01-01 00:00:00



                        

full body sensual massage

massage-love in Massage