girl massage sex spytug.15.07.31.girl.41.mp4

 girl massage sex

Download: http://rapidgator.net/file/3c873fe9df1eace75ddd15708d595429/t5mq_opb1.7z.html
Archive key: t5mq
Technical details

General
Complete name                            : /tmp/spytug.15.07.31.girl.41.mp4/spytug.15.07.31.girl.41.mp4
Format                                   : MPEG-4
Format profile                           : Base Media / Version 2
Codec ID                                 : mp42 (mp41/mp42/isom)
File size                                : 570 MiB
Duration                                 : 9mn 36s
Overall bit rate mode                    : Variable
Overall bit rate                         : 8 285 Kbps
Movie name                               : SpyTug165-G41
Encoded date                             : UTC 2015-07-29 04:59:56
Tagged date                              : UTC 2015-07-29 05:19:27

Video
ID                                       : 2
Format                                   : AVC
Format/Info                              : Advanced Video Codec
Format profile                           : Main@L4
Format settings, CABAC                   : No
Format settings, ReFrames                : 2 frames
Codec ID                                 : avc1
Codec ID/Info                            : Advanced Video Coding
Duration                                 : 9mn 36s
Bit rate mode                            : Variable
Bit rate                                 : 8 028 Kbps
Maximum bit rate                         : 768 Kbps
Width                                    : 1 920 pixels
Height                                   : 1 080 pixels
Display aspect ratio                     : 16:9
Frame rate mode                          : Constant
Frame rate                               : 29.970 (30000/1001) fps
Original frame rate                      : 25.000 fps
Color space                              : YUV
Chroma subsampling                       : 4:2:0
Bit depth                                : 8 bits
Scan type                                : Progressive
Bits/(Pixel*Frame)                       : 0.129
Stream size                              : 552 MiB (97%)
Title                                    : Core Media Video
Encoded date                             : UTC 2015-07-29 04:59:56
Tagged date                              : UTC 2015-07-29 05:19:27
Color range                              : Limited
Color primaries                          : BT.709
Transfer characteristics                 : BT.709
Matrix coefficients                      : BT.709

Audio
ID                                       : 1
Format                                   : AAC
Format/Info                              : Advanced Audio Codec
Format profile                           : LC
Codec ID                                 : 40
Duration                                 : 9mn 36s
Source duration                          : 9mn 36s
Bit rate mode                            : Constant
Bit rate                                 : 256 Kbps
Channel(s)                               : 2 channels
Channel positions                        : Front: L R
Sampling rate                            : 44.1 KHz
Frame rate                               : 43.066 fps (1024 spf)
Compression mode                         : Lossy
Stream size                              : 17.3 MiB (3%)
Source stream size                       : 17.3 MiB (3%)
Title                                    : Core Media Audio
Language                                 : English
Encoded date                             : UTC 2015-07-29 04:59:56
Tagged date                              : UTC 2015-07-29 05:19:27



                        

girl massage sex

massage-videos in New