massage and sex spytug.15.04.17.girl.34.mp4

 massage and sex

Download: http://rapidgator.net/file/c4913e9111b38e062c1bbfd0e30ac708/n2a_6eplr.7z.html
Archive key: n2a
Technical details

General
Complete name                            : /tmp/spytug.15.04.17.girl.34.mp4/spytug.15.04.17.girl.34.mp4
Format                                   : MPEG-4
Format profile                           : Base Media / Version 2
Codec ID                                 : mp42 (mp42/mp41)
File size                                : 260 MiB
Duration                                 : 4mn 28s
Overall bit rate                         : 8 123 Kbps
Encoded date                             : UTC 2015-04-14 04:39:03
Tagged date                              : UTC 2015-04-14 04:39:17

Video
ID                                       : 1
Format                                   : AVC
Format/Info                              : Advanced Video Codec
Format profile                           : Main@L4
Format settings, CABAC                   : No
Format settings, ReFrames                : 2 frames
Format settings, GOP                     : M=2, N=30
Codec ID                                 : avc1
Codec ID/Info                            : Advanced Video Coding
Duration                                 : 4mn 28s
Bit rate                                 : 7 493 Kbps
Width                                    : 1 920 pixels
Height                                   : 1 080 pixels
Display aspect ratio                     : 16:9
Frame rate mode                          : Constant
Frame rate                               : 29.970 (30000/1001) fps
Color space                              : YUV
Chroma subsampling                       : 4:2:0
Bit depth                                : 8 bits
Scan type                                : Progressive
Bits/(Pixel*Frame)                       : 0.121
Stream size                              : 240 MiB (92%)
Language                                 : English
Encoded date                             : UTC 2015-04-14 04:38:53
Tagged date                              : UTC 2015-04-14 04:39:17
Color range                              : Limited
Color primaries                          : BT.709
Transfer characteristics                 : BT.709
Matrix coefficients                      : BT.709

Audio
ID                                       : 2
Format                                   : AAC
Format/Info                              : Advanced Audio Codec
Format profile                           : LC
Codec ID                                 : 40
Duration                                 : 4mn 28s
Source duration                          : 4mn 28s
Bit rate mode                            : Constant
Bit rate                                 : 256 Kbps
Channel(s)                               : 2 channels
Channel positions                        : Front: L R
Sampling rate                            : 44.1 KHz
Frame rate                               : 43.066 fps (1024 spf)
Compression mode                         : Lossy
Stream size                              : 8.07 MiB (3%)
Source stream size                       : 8.07 MiB (3%)
Language                                 : English
Encoded date                             : UTC 2015-04-14 04:38:53
Tagged date                              : UTC 2015-04-14 04:39:17

Other #1
ID                                       : 3
Type                                     : Hint
Format                                   : RTP
Codec ID                                 : rtp 
Duration                                 : 4mn 28s
Title                                    : Hinted Sound Track
Language                                 : English
Default                                  : No
Encoded date                             : UTC 2015-04-14 04:38:53
Tagged date                              : UTC 2015-04-14 04:39:17
Source duration                          : 268771
Source frame count                       : 8360
Source stream size                       : 452720
Stream size                              : 452720
Bit rate mode                            : VBR

Other #2
ID                                       : 4
Type                                     : Hint
Format                                   : RTP
Codec ID                                 : rtp 
Duration                                 : 4mn 28s
Title                                    : Hinted Video Track
Language                                 : English
Default                                  : No
Encoded date                             : UTC 2015-04-14 04:38:55
Tagged date                              : UTC 2015-04-14 04:39:17



                        

massage and sex

massage-videos in New