spytug.14.09.13.girl.12.mp4 oil message

 oil message

Download: http://rapidgator.net/file/7eff5ef6429bb1cd13400a875b525d66/213q_8mttdx.7z.html
Archive key: 213q
Technical details

General
Complete name                            : /tmp/spytug.14.09.13.girl.12.mp4/spytug.14.09.13.girl.12.mp4
Format                                   : MPEG-4
Format profile                           : Base Media / Version 2
Codec ID                                 : mp42 (mp42/mp41)
File size                                : 379 MiB
Duration                                 : 9mn 13s
Overall bit rate                         : 5 751 Kbps
Encoded date                             : UTC 2014-09-13 20:28:29
Tagged date                              : UTC 2014-09-13 20:28:46

Video
ID                                       : 1
Format                                   : AVC
Format/Info                              : Advanced Video Codec
Format profile                           : Main@L4
Format settings, CABAC                   : No
Format settings, ReFrames                : 2 frames
Format settings, GOP                     : M=2, N=30
Codec ID                                 : avc1
Codec ID/Info                            : Advanced Video Coding
Duration                                 : 9mn 13s
Bit rate                                 : 5 216 Kbps
Width                                    : 1 920 pixels
Height                                   : 1 080 pixels
Display aspect ratio                     : 16:9
Frame rate mode                          : Constant
Frame rate                               : 29.970 (30000/1001) fps
Color space                              : YUV
Chroma subsampling                       : 4:2:0
Bit depth                                : 8 bits
Scan type                                : Progressive
Bits/(Pixel*Frame)                       : 0.084
Stream size                              : 344 MiB (91%)
Language                                 : English
Encoded date                             : UTC 2014-09-13 20:28:18
Tagged date                              : UTC 2014-09-13 20:28:46
Color range                              : Limited
Color primaries                          : BT.709
Transfer characteristics                 : BT.709
Matrix coefficients                      : BT.709

Audio
ID                                       : 2
Format                                   : AAC
Format/Info                              : Advanced Audio Codec
Format profile                           : LC
Codec ID                                 : 40
Duration                                 : 9mn 13s
Source duration                          : 9mn 13s
Bit rate mode                            : Constant
Bit rate                                 : 256 Kbps
Channel(s)                               : 2 channels
Channel positions                        : Front: L R
Sampling rate                            : 44.1 KHz
Frame rate                               : 43.066 fps (1024 spf)
Compression mode                         : Lossy
Stream size                              : 16.6 MiB (4%)
Source stream size                       : 16.6 MiB (4%)
Language                                 : English
Encoded date                             : UTC 2014-09-13 20:28:18
Tagged date                              : UTC 2014-09-13 20:28:46

Other #1
ID                                       : 3
Type                                     : Hint
Format                                   : RTP
Codec ID                                 : rtp 
Duration                                 : 9mn 13s
Title                                    : Hinted Sound Track
Language                                 : English
Default                                  : No
Encoded date                             : UTC 2014-09-13 20:28:18
Tagged date                              : UTC 2014-09-13 20:28:46
Source duration                          : 553424
Source frame count                       : 16543
Source stream size                       : 910720
Stream size                              : 910720
Bit rate mode                            : VBR

Other #2
ID                                       : 4
Type                                     : Hint
Format                                   : RTP
Codec ID                                 : rtp 
Duration                                 : 9mn 13s
Title                                    : Hinted Video Track
Language                                 : English
Default                                  : No
Encoded date                             : UTC 2014-09-13 20:28:21
Tagged date                              : UTC 2014-09-13 20:28:46



                        

oil message

massage-videos in Massage