spytug.14.04.20.girl.17.mp4 full body massage sensual

 full body massage sensual

Download: http://rapidgator.net/file/7ae72c97237857255e205622266cc4a4/3zy5_a0zf.7z.html
Archive key: 3zy5
Technical details

General
Complete name                            : /tmp/spytug.14.04.20.girl.17.mp4/spytug.14.04.20.girl.17.mp4
Format                                   : MPEG-4
Format profile                           : Base Media / Version 2
Codec ID                                 : mp42 (mp42/mp41)
File size                                : 201 MiB
Duration                                 : 5mn 6s
Overall bit rate                         : 5 486 Kbps
Encoded date                             : UTC 2014-04-16 05:30:14
Tagged date                              : UTC 2014-04-16 05:30:25

Video
ID                                       : 1
Format                                   : AVC
Format/Info                              : Advanced Video Codec
Format profile                           : Main@L4
Format settings, CABAC                   : No
Format settings, ReFrames                : 2 frames
Format settings, GOP                     : M=2, N=30
Codec ID                                 : avc1
Codec ID/Info                            : Advanced Video Coding
Duration                                 : 5mn 6s
Bit rate                                 : 4 950 Kbps
Width                                    : 1 920 pixels
Height                                   : 1 080 pixels
Display aspect ratio                     : 16:9
Frame rate mode                          : Constant
Frame rate                               : 29.970 (30000/1001) fps
Color space                              : YUV
Chroma subsampling                       : 4:2:0
Bit depth                                : 8 bits
Scan type                                : Progressive
Bits/(Pixel*Frame)                       : 0.080
Stream size                              : 181 MiB (90%)
Language                                 : English
Encoded date                             : UTC 2014-04-16 05:30:07
Tagged date                              : UTC 2014-04-16 05:30:25
Color range                              : Limited
Color primaries                          : BT.709
Transfer characteristics                 : BT.709
Matrix coefficients                      : BT.709

Audio
ID                                       : 2
Format                                   : AAC
Format/Info                              : Advanced Audio Codec
Format profile                           : LC
Codec ID                                 : 40
Duration                                 : 5mn 6s
Source duration                          : 5mn 6s
Bit rate mode                            : Constant
Bit rate                                 : 256 Kbps
Channel(s)                               : 2 channels
Channel positions                        : Front: L R
Sampling rate                            : 44.1 KHz
Frame rate                               : 43.066 fps (1024 spf)
Compression mode                         : Lossy
Stream size                              : 9.47 MiB (5%)
Source stream size                       : 9.47 MiB (5%)
Language                                 : English
Encoded date                             : UTC 2014-04-16 05:30:07
Tagged date                              : UTC 2014-04-16 05:30:25

Other #1
ID                                       : 3
Type                                     : Hint
Format                                   : RTP
Codec ID                                 : rtp 
Duration                                 : 5mn 6s
Title                                    : Hinted Sound Track
Language                                 : English
Default                                  : No
Encoded date                             : UTC 2014-04-16 05:30:07
Tagged date                              : UTC 2014-04-16 05:30:25
Source duration                          : 306945
Source frame count                       : 11753
Source stream size                       : 587600
Stream size                              : 587600
Bit rate mode                            : VBR

Other #2
ID                                       : 4
Type                                     : Hint
Format                                   : RTP
Codec ID                                 : rtp 
Duration                                 : 5mn 6s
Title                                    : Hinted Video Track
Language                                 : English
Default                                  : No
Encoded date                             : UTC 2014-04-16 05:30:09
Tagged date                              : UTC 2014-04-16 05:30:25



                        

full body massage sensual

massage-videos in Videos