where can you buy massage oil spytug.14.03.18.girl.1.mp4

 where can you buy massage oil

Download: http://rapidgator.net/file/d65386474243fd69a35be81f7943aa4e/pbbh_o6zzh.7z.html
Archive key: pbbh
Technical details

General
Complete name                            : /tmp/spytug.14.03.18.girl.1.mp4/spytug.14.03.18.girl.1.mp4
Format                                   : MPEG-4
Format profile                           : Base Media / Version 2
Codec ID                                 : mp42 (mp42/mp41)
File size                                : 326 MiB
Duration                                 : 8mn 18s
Overall bit rate                         : 5 479 Kbps
Encoded date                             : UTC 2014-03-18 00:58:07
Tagged date                              : UTC 2014-03-18 00:58:18

Video
ID                                       : 1
Format                                   : AVC
Format/Info                              : Advanced Video Codec
Format profile                           : Main@L4
Format settings, CABAC                   : No
Format settings, ReFrames                : 2 frames
Format settings, GOP                     : M=2, N=30
Codec ID                                 : avc1
Codec ID/Info                            : Advanced Video Coding
Duration                                 : 8mn 18s
Bit rate                                 : 4 983 Kbps
Width                                    : 1 920 pixels
Height                                   : 1 080 pixels
Display aspect ratio                     : 16:9
Frame rate mode                          : Constant
Frame rate                               : 29.970 (30000/1001) fps
Color space                              : YUV
Chroma subsampling                       : 4:2:0
Bit depth                                : 8 bits
Scan type                                : Progressive
Bits/(Pixel*Frame)                       : 0.080
Stream size                              : 296 MiB (91%)
Language                                 : English
Encoded date                             : UTC 2014-03-18 00:57:58
Tagged date                              : UTC 2014-03-18 00:58:18
Color range                              : Limited
Color primaries                          : BT.709
Transfer characteristics                 : BT.709
Matrix coefficients                      : BT.709

Audio
ID                                       : 2
Format                                   : AAC
Format/Info                              : Advanced Audio Codec
Format profile                           : LC
Codec ID                                 : 40
Duration                                 : 8mn 18s
Source duration                          : 8mn 18s
Bit rate mode                            : Constant
Bit rate                                 : 221 Kbps
Nominal bit rate                         : 256 Kbps
Channel(s)                               : 2 channels
Channel positions                        : Front: L R
Sampling rate                            : 44.1 KHz
Frame rate                               : 43.066 fps (1024 spf)
Compression mode                         : Lossy
Stream size                              : 13.1 MiB (4%)
Source stream size                       : 13.1 MiB (4%)
Language                                 : English
Encoded date                             : UTC 2014-03-18 00:57:58
Tagged date                              : UTC 2014-03-18 00:58:18

Other #1
ID                                       : 3
Type                                     : Hint
Format                                   : RTP
Codec ID                                 : rtp 
Duration                                 : 8mn 18s
Title                                    : Hinted Sound Track
Language                                 : English
Default                                  : No
Encoded date                             : UTC 2014-03-18 00:57:58
Tagged date                              : UTC 2014-03-18 00:58:18
Source duration                          : 498904
Source frame count                       : 11242
Source stream size                       : 703520
Stream size                              : 703520
Bit rate mode                            : VBR

Other #2
ID                                       : 4
Type                                     : Hint
Format                                   : RTP
Codec ID                                 : rtp 
Duration                                 : 8mn 18s
Title                                    : Hinted Video Track
Language                                 : English
Default                                  : No
Encoded date                             : UTC 2014-03-18 00:58:00
Tagged date                              : UTC 2014-03-18 00:58:18



                        

where can you buy massage oil

massage-videos in Massage