spytug.14.03.04.girl.16.mp4 chiangmai thai massage

 chiangmai thai massage

Download: http://rapidgator.net/file/22b3f1a715704fb987c0542156e6f6e1/odet_kq6l.7z.html
Archive key: odet
Technical details

General
Complete name                            : /tmp/spytug.14.03.04.girl.16.mp4/spytug.14.03.04.girl.16.mp4
Format                                   : MPEG-4
Format profile                           : Base Media / Version 2
Codec ID                                 : mp42 (mp42/mp41)
File size                                : 271 MiB
Duration                                 : 6mn 52s
Overall bit rate                         : 5 511 Kbps
Encoded date                             : UTC 2014-02-27 15:49:52
Tagged date                              : UTC 2014-02-27 15:50:08

Video
ID                                       : 1
Format                                   : AVC
Format/Info                              : Advanced Video Codec
Format profile                           : Main@L4
Format settings, CABAC                   : No
Format settings, ReFrames                : 2 frames
Format settings, GOP                     : M=1, N=30
Codec ID                                 : avc1
Codec ID/Info                            : Advanced Video Coding
Duration                                 : 6mn 52s
Bit rate                                 : 5 030 Kbps
Width                                    : 1 920 pixels
Height                                   : 1 080 pixels
Display aspect ratio                     : 16:9
Frame rate mode                          : Constant
Frame rate                               : 29.970 (30000/1001) fps
Color space                              : YUV
Chroma subsampling                       : 4:2:0
Bit depth                                : 8 bits
Scan type                                : Progressive
Bits/(Pixel*Frame)                       : 0.081
Stream size                              : 247 MiB (91%)
Language                                 : English
Encoded date                             : UTC 2014-02-27 15:49:43
Tagged date                              : UTC 2014-02-27 15:50:08
Color range                              : Limited
Color primaries                          : BT.709
Transfer characteristics                 : BT.709
Matrix coefficients                      : BT.709

Audio
ID                                       : 2
Format                                   : AAC
Format/Info                              : Advanced Audio Codec
Format profile                           : LC
Codec ID                                 : 40
Duration                                 : 6mn 52s
Source duration                          : 6mn 52s
Bit rate mode                            : Constant
Bit rate                                 : 256 Kbps
Channel(s)                               : 2 channels
Channel positions                        : Front: L R
Sampling rate                            : 44.1 KHz
Frame rate                               : 43.066 fps (1024 spf)
Compression mode                         : Lossy
Stream size                              : 12.7 MiB (5%)
Source stream size                       : 12.7 MiB (5%)
Language                                 : English
Encoded date                             : UTC 2014-02-27 15:49:43
Tagged date                              : UTC 2014-02-27 15:50:08

Other #1
ID                                       : 3
Type                                     : Hint
Format                                   : RTP
Codec ID                                 : rtp 
Duration                                 : 6mn 52s
Title                                    : Hinted Sound Track
Language                                 : English
Default                                  : No
Encoded date                             : UTC 2014-02-27 15:49:43
Tagged date                              : UTC 2014-02-27 15:50:08
Source duration                          : 412433
Source frame count                       : 15955
Source stream size                       : 794752
Stream size                              : 794704
Bit rate mode                            : VBR

Other #2
ID                                       : 4
Type                                     : Hint
Format                                   : RTP
Codec ID                                 : rtp 
Duration                                 : 6mn 52s
Title                                    : Hinted Video Track
Language                                 : English
Default                                  : No
Encoded date                             : UTC 2014-02-27 15:49:46
Tagged date                              : UTC 2014-02-27 15:50:08



                        

chiangmai thai massage

massage-videos in New