thai massae spytug.14.02.18.girl.8.mp4

 thai massae

Download: http://rapidgator.net/file/05bba3a263b3e69534b4ba9a49b37552/g06k_e7rost.7z.html
Archive key: g06k
Technical details

General
Complete name                            : /tmp/spytug.14.02.18.girl.8.mp4/spytug.14.02.18.girl.8.mp4
Format                                   : MPEG-4
Format profile                           : QuickTime
Codec ID                                 : qt   2005.03 (qt  )
File size                                : 137 MiB
Duration                                 : 3mn 32s
Overall bit rate                         : 5 390 Kbps
Movie name                               : SpyTug46-G8
Album/Performer                          : David Graves
Description                              : This video is about SpyTug46-G8
Encoded date                             : UTC 2014-02-04 20:20:15
Tagged date                              : UTC 2014-02-04 21:01:36
Writing library                          : Apple QuickTime
com.apple.quicktime.author               : David Graves
com.apple.quicktime.keywords             : SpyTug
com.apple.quicktime.title                : SpyTug46-G8
Media/UUID                               : 89027265-5FB1-479F-9D0D-FCE8FDCD6B6D
Keyword                                  : SpyTug

Video
ID                                       : 1
Format                                   : AVC
Format/Info                              : Advanced Video Codec
Format profile                           : Main@L4
Format settings, CABAC                   : No
Format settings, ReFrames                : 2 frames
Format settings, GOP                     : M=2, N=24
Codec ID                                 : avc1
Codec ID/Info                            : Advanced Video Coding
Duration                                 : 3mn 32s
Bit rate                                 : 5 137 Kbps
Width                                    : 1 920 pixels
Clean aperture width                     : 1 888 pixels
Height                                   : 1 080 pixels
Clean aperture height                    : 1 062 pixels
Display aspect ratio                     : 16:9
Frame rate mode                          : Constant
Frame rate                               : 29.970 (30000/1001) fps
Color space                              : YUV
Chroma subsampling                       : 4:2:0
Bit depth                                : 8 bits
Scan type                                : Progressive
Bits/(Pixel*Frame)                       : 0.083
Stream size                              : 130 MiB (95%)
Language                                 : English
Encoded date                             : UTC 2014-02-04 21:01:31
Tagged date                              : UTC 2014-02-04 21:01:36
Color range                              : Limited
Color primaries                          : BT.709
Transfer characteristics                 : BT.709
Matrix coefficients                      : BT.709

Audio
ID                                       : 2
Format                                   : AAC
Format/Info                              : Advanced Audio Codec
Format profile                           : LC
Codec ID                                 : 40
Duration                                 : 3mn 32s
Source duration                          : 3mn 32s
Bit rate mode                            : Constant
Bit rate                                 : 256 Kbps
Channel(s)                               : 2 channels
Channel positions                        : Front: L R
Sampling rate                            : 44.1 KHz
Frame rate                               : 43.066 fps (1024 spf)
Compression mode                         : Lossy
Stream size                              : 6.29 MiB (5%)
Source stream size                       : 6.29 MiB (5%)
Language                                 : English
Encoded date                             : UTC 2014-02-04 21:01:31
Tagged date                              : UTC 2014-02-04 21:01:36

Other
ID                                       : 3
Type                                     : Time code
Format                                   : QuickTime TC
Duration                                 : 3mn 32s
Time code of first frame                 : 00:00:00;00
Time code, striped                       : Yes
Language                                 : English
Encoded date                             : UTC 2014-02-04 21:01:36
Tagged date                              : UTC 2014-02-04 21:01:36



                        

thai massae

massage-videos in Videos