tantric massage parlor spytug.14.01.28.girl.9.mp4

 tantric massage parlor

Download: http://rapidgator.net/file/90d1d06acfd4a1843a999c09b48afb09/sft_h2hbb.7z.html
Archive key: sft
Technical details

General
Complete name                            : /tmp/spytug.14.01.28.girl.9.mp4/spytug.14.01.28.girl.9.mp4
Format                                   : MPEG-4
Format profile                           : QuickTime
Codec ID                                 : qt   2005.03 (qt  )
File size                                : 763 MiB
Duration                                 : 19mn 7s
Overall bit rate                         : 5 572 Kbps
Movie name                               : SpyTug40-G9
Album/Performer                          : David Graves
Description                              : This video is about SpyTug40-G9
Encoded date                             : UTC 2014-01-06 19:06:48
Tagged date                              : UTC 2014-01-06 23:12:37
Writing library                          : Apple QuickTime
com.apple.quicktime.author               : David Graves
com.apple.quicktime.keywords             : SpyTug
com.apple.quicktime.title                : SpyTug40-G9
Media/UUID                               : 899BEF83-07ED-413A-809F-819E5E88D45A
Keyword                                  : SpyTug

Video
ID                                       : 1
Format                                   : AVC
Format/Info                              : Advanced Video Codec
Format profile                           : Main@L4
Format settings, CABAC                   : No
Format settings, ReFrames                : 2 frames
Format settings, GOP                     : M=2, N=24
Codec ID                                 : avc1
Codec ID/Info                            : Advanced Video Coding
Duration                                 : 19mn 7s
Bit rate                                 : 5 316 Kbps
Width                                    : 1 920 pixels
Clean aperture width                     : 1 888 pixels
Height                                   : 1 080 pixels
Clean aperture height                    : 1 062 pixels
Display aspect ratio                     : 16:9
Frame rate mode                          : Constant
Frame rate                               : 29.970 (30000/1001) fps
Color space                              : YUV
Chroma subsampling                       : 4:2:0
Bit depth                                : 8 bits
Scan type                                : Progressive
Bits/(Pixel*Frame)                       : 0.086
Stream size                              : 727 MiB (95%)
Language                                 : English
Encoded date                             : UTC 2014-01-06 23:12:10
Tagged date                              : UTC 2014-01-06 23:12:37
Color range                              : Limited
Color primaries                          : BT.709
Transfer characteristics                 : BT.709
Matrix coefficients                      : BT.709

Audio
ID                                       : 2
Format                                   : AAC
Format/Info                              : Advanced Audio Codec
Format profile                           : LC
Codec ID                                 : 40
Duration                                 : 19mn 7s
Source duration                          : 19mn 8s
Bit rate mode                            : Constant
Bit rate                                 : 256 Kbps
Channel(s)                               : 2 channels
Channel positions                        : Front: L R
Sampling rate                            : 44.1 KHz
Frame rate                               : 43.066 fps (1024 spf)
Compression mode                         : Lossy
Stream size                              : 34.4 MiB (5%)
Source stream size                       : 34.4 MiB (5%)
Language                                 : English
Encoded date                             : UTC 2014-01-06 23:12:10
Tagged date                              : UTC 2014-01-06 23:12:37

Other
ID                                       : 3
Type                                     : Time code
Format                                   : QuickTime TC
Duration                                 : 19mn 7s
Time code of first frame                 : 00:00:00;00
Time code, striped                       : Yes
Language                                 : English
Encoded date                             : UTC 2014-01-06 23:12:37
Tagged date                              : UTC 2014-01-06 23:12:37



                        

tantric massage parlor

massage-videos in Massage