boobs massage with oil spytug.14.01.18.girl.8.mp4

 boobs massage with oil

Download: http://rapidgator.net/file/45f2d84de322f15af352ba12ec1f2e41/n8fx_p1nfc.7z.html
Archive key: n8fx
Technical details

General
Complete name                            : /tmp/spytug.14.01.18.girl.8.mp4/spytug.14.01.18.girl.8.mp4
Format                                   : MPEG-4
Format profile                           : QuickTime
Codec ID                                 : qt   2005.03 (qt  )
File size                                : 333 MiB
Duration                                 : 8mn 40s
Overall bit rate                         : 5 371 Kbps
Movie name                               : SpyTug37-G8
Album/Performer                          : David Graves
Description                              : This video is about SpyTug37-G8
Encoded date                             : UTC 2013-12-13 20:21:58
Tagged date                              : UTC 2013-12-13 22:11:37
Writing library                          : Apple QuickTime
com.apple.quicktime.author               : David Graves
com.apple.quicktime.keywords             : SpyTug
com.apple.quicktime.title                : SpyTug37-G8
Media/UUID                               : E2410DF6-F4F8-4B99-8C83-DCEB3045C534
Keyword                                  : SpyTug

Video
ID                                       : 1
Format                                   : AVC
Format/Info                              : Advanced Video Codec
Format profile                           : Main@L4
Format settings, CABAC                   : No
Format settings, ReFrames                : 2 frames
Format settings, GOP                     : M=2, N=24
Codec ID                                 : avc1
Codec ID/Info                            : Advanced Video Coding
Duration                                 : 8mn 40s
Bit rate                                 : 5 114 Kbps
Width                                    : 1 920 pixels
Clean aperture width                     : 1 888 pixels
Height                                   : 1 080 pixels
Clean aperture height                    : 1 062 pixels
Display aspect ratio                     : 16:9
Frame rate mode                          : Constant
Frame rate                               : 29.970 (30000/1001) fps
Color space                              : YUV
Chroma subsampling                       : 4:2:0
Bit depth                                : 8 bits
Scan type                                : Progressive
Bits/(Pixel*Frame)                       : 0.082
Stream size                              : 317 MiB (95%)
Language                                 : English
Encoded date                             : UTC 2013-12-13 22:11:24
Tagged date                              : UTC 2013-12-13 22:11:37
Color range                              : Limited
Color primaries                          : BT.709
Transfer characteristics                 : BT.709
Matrix coefficients                      : BT.709

Audio
ID                                       : 2
Format                                   : AAC
Format/Info                              : Advanced Audio Codec
Format profile                           : LC
Codec ID                                 : 40
Duration                                 : 8mn 40s
Source duration                          : 8mn 40s
Bit rate mode                            : Constant
Bit rate                                 : 256 Kbps
Channel(s)                               : 2 channels
Channel positions                        : Front: L R
Sampling rate                            : 44.1 KHz
Frame rate                               : 43.066 fps (1024 spf)
Compression mode                         : Lossy
Stream size                              : 15.6 MiB (5%)
Source stream size                       : 15.6 MiB (5%)
Language                                 : English
Encoded date                             : UTC 2013-12-13 22:11:24
Tagged date                              : UTC 2013-12-13 22:11:37

Other
ID                                       : 3
Type                                     : Time code
Format                                   : QuickTime TC
Duration                                 : 8mn 40s
Time code of first frame                 : 00:00:00;00
Time code, striped                       : Yes
Language                                 : English
Encoded date                             : UTC 2013-12-13 22:11:37
Tagged date                              : UTC 2013-12-13 22:11:37



                        

boobs massage with oil

massage-videos in Videos