spytug.14.01.14.girl.11.mp4 nearest asian massage parlor

 nearest asian massage parlor

Download: http://rapidgator.net/file/87605a09041361d70bf23155cc8ccddc/d3z_hd0p.7z.html
Archive key: d3z
Technical details

General
Complete name                            : /tmp/spytug.14.01.14.girl.11.mp4/spytug.14.01.14.girl.11.mp4
Format                                   : MPEG-4
Format profile                           : QuickTime
Codec ID                                 : qt   2005.03 (qt  )
File size                                : 233 MiB
Duration                                 : 5mn 55s
Overall bit rate                         : 5 507 Kbps
Movie name                               : SpyTug36-G11
Album/Performer                          : David Graves
Description                              : This video is about SpyTug36-G11
Encoded date                             : UTC 2013-12-07 01:20:24
Tagged date                              : UTC 2013-12-07 02:36:23
Writing library                          : Apple QuickTime
com.apple.quicktime.author               : David Graves
com.apple.quicktime.keywords             : SpyTug
com.apple.quicktime.title                : SpyTug36-G11
Media/UUID                               : 9E148D9C-C793-4D4B-B028-1597DFCE9734
Keyword                                  : SpyTug

Video
ID                                       : 1
Format                                   : AVC
Format/Info                              : Advanced Video Codec
Format profile                           : Main@L4
Format settings, CABAC                   : No
Format settings, ReFrames                : 2 frames
Format settings, GOP                     : M=2, N=24
Codec ID                                 : avc1
Codec ID/Info                            : Advanced Video Coding
Duration                                 : 5mn 55s
Bit rate                                 : 5 250 Kbps
Width                                    : 1 920 pixels
Clean aperture width                     : 1 888 pixels
Height                                   : 1 080 pixels
Clean aperture height                    : 1 062 pixels
Display aspect ratio                     : 16:9
Frame rate mode                          : Constant
Frame rate                               : 29.970 (30000/1001) fps
Color space                              : YUV
Chroma subsampling                       : 4:2:0
Bit depth                                : 8 bits
Scan type                                : Progressive
Bits/(Pixel*Frame)                       : 0.084
Stream size                              : 222 MiB (95%)
Language                                 : English
Encoded date                             : UTC 2013-12-07 02:36:14
Tagged date                              : UTC 2013-12-07 02:36:23
Color range                              : Limited
Color primaries                          : BT.709
Transfer characteristics                 : BT.709
Matrix coefficients                      : BT.709

Audio
ID                                       : 2
Format                                   : AAC
Format/Info                              : Advanced Audio Codec
Format profile                           : LC
Codec ID                                 : 40
Duration                                 : 5mn 55s
Source duration                          : 5mn 55s
Bit rate mode                            : Constant
Bit rate                                 : 256 Kbps
Channel(s)                               : 2 channels
Channel positions                        : Front: L R
Sampling rate                            : 44.1 KHz
Frame rate                               : 43.066 fps (1024 spf)
Compression mode                         : Lossy
Stream size                              : 10.6 MiB (5%)
Source stream size                       : 10.6 MiB (5%)
Language                                 : English
Encoded date                             : UTC 2013-12-07 02:36:14
Tagged date                              : UTC 2013-12-07 02:36:23

Other
ID                                       : 3
Type                                     : Time code
Format                                   : QuickTime TC
Duration                                 : 5mn 55s
Time code of first frame                 : 00:00:00;00
Time code, striped                       : Yes
Language                                 : English
Encoded date                             : UTC 2013-12-07 02:36:23
Tagged date                              : UTC 2013-12-07 02:36:23



                        

nearest asian massage parlor

massage-love in Massage