spytug.14.01.11.girl.7.mp4 excotic massage

 excotic massage

Download: http://rapidgator.net/file/ee9703f293c3d7f1eaacd86aa4f57406/7dgy_c262b.7z.html
Archive key: 7dgy
Technical details

General
Complete name                            : /tmp/spytug.14.01.11.girl.7.mp4/spytug.14.01.11.girl.7.mp4
Format                                   : MPEG-4
Format profile                           : QuickTime
Codec ID                                 : qt   2005.03 (qt  )
File size                                : 259 MiB
Duration                                 : 6mn 43s
Overall bit rate                         : 5 383 Kbps
Movie name                               : SpyTug35-G7
Album/Performer                          : David Graves
Description                              : This video is about SpyTug35-G7
Encoded date                             : UTC 2013-11-25 07:35:00
Tagged date                              : UTC 2013-11-25 09:00:29
Writing library                          : Apple QuickTime
com.apple.quicktime.author               : David Graves
com.apple.quicktime.keywords             : SpyTug
com.apple.quicktime.title                : SpyTug35-G7
Media/UUID                               : 7EAD1E93-BB98-4FDA-A47A-389DC0BEE0BC
Keyword                                  : SpyTug

Video
ID                                       : 1
Format                                   : AVC
Format/Info                              : Advanced Video Codec
Format profile                           : Main@L4
Format settings, CABAC                   : No
Format settings, ReFrames                : 2 frames
Format settings, GOP                     : M=2, N=24
Codec ID                                 : avc1
Codec ID/Info                            : Advanced Video Coding
Duration                                 : 6mn 43s
Bit rate                                 : 5 128 Kbps
Width                                    : 1 920 pixels
Clean aperture width                     : 1 888 pixels
Height                                   : 1 080 pixels
Clean aperture height                    : 1 062 pixels
Display aspect ratio                     : 16:9
Frame rate mode                          : Constant
Frame rate                               : 29.970 (30000/1001) fps
Color space                              : YUV
Chroma subsampling                       : 4:2:0
Bit depth                                : 8 bits
Scan type                                : Progressive
Bits/(Pixel*Frame)                       : 0.083
Stream size                              : 247 MiB (95%)
Language                                 : English
Encoded date                             : UTC 2013-11-25 09:00:20
Tagged date                              : UTC 2013-11-25 09:00:29
Color range                              : Limited
Color primaries                          : BT.709
Transfer characteristics                 : BT.709
Matrix coefficients                      : BT.709

Audio
ID                                       : 2
Format                                   : AAC
Format/Info                              : Advanced Audio Codec
Format profile                           : LC
Codec ID                                 : 40
Duration                                 : 6mn 43s
Source duration                          : 6mn 43s
Bit rate mode                            : Constant
Bit rate                                 : 256 Kbps
Channel(s)                               : 2 channels
Channel positions                        : Front: L R
Sampling rate                            : 44.1 KHz
Frame rate                               : 43.066 fps (1024 spf)
Compression mode                         : Lossy
Stream size                              : 12.0 MiB (5%)
Source stream size                       : 12.0 MiB (5%)
Language                                 : English
Encoded date                             : UTC 2013-11-25 09:00:20
Tagged date                              : UTC 2013-11-25 09:00:29

Other
ID                                       : 3
Type                                     : Time code
Format                                   : QuickTime TC
Duration                                 : 6mn 43s
Time code of first frame                 : 00:00:00;00
Time code, striped                       : Yes
Language                                 : English
Encoded date                             : UTC 2013-11-25 09:00:29
Tagged date                              : UTC 2013-11-25 09:00:29



                        

excotic massage

massage-videos in Videos