spytug.13.12.17.girl.6.mp4 full massage sex

 full massage sex

Download: http://rapidgator.net/file/f0c7e2b217361e0dd3b9bf92450435f0/n8fx_c12s3h.7z.html
Archive key: n8fx
Technical details

General
Complete name                            : /tmp/spytug.13.12.17.girl.6.mp4/spytug.13.12.17.girl.6.mp4
Format                                   : MPEG-4
Format profile                           : QuickTime
Codec ID                                 : qt   2005.03 (qt  )
File size                                : 201 MiB
Duration                                 : 5mn 5s
Overall bit rate                         : 5 522 Kbps
Movie name                               : SpyTug28-G6
Album/Performer                          : David Graves
Description                              : This video is about SpyTug28-G6
Encoded date                             : UTC 2013-10-13 20:00:32
Tagged date                              : UTC 2013-10-13 21:00:11
Writing library                          : Apple QuickTime
com.apple.quicktime.author               : David Graves
com.apple.quicktime.keywords             : SpyTug
com.apple.quicktime.title                : SpyTug28-G6
Media/UUID                               : C11137B9-CDC8-463A-B134-D5F62EE231D6
Keyword                                  : SpyTug

Video
ID                                       : 1
Format                                   : AVC
Format/Info                              : Advanced Video Codec
Format profile                           : Main@L4
Format settings, CABAC                   : No
Format settings, ReFrames                : 2 frames
Format settings, GOP                     : M=2, N=24
Codec ID                                 : avc1
Codec ID/Info                            : Advanced Video Coding
Duration                                 : 5mn 5s
Bit rate                                 : 5 268 Kbps
Width                                    : 1 920 pixels
Clean aperture width                     : 1 888 pixels
Height                                   : 1 080 pixels
Clean aperture height                    : 1 062 pixels
Display aspect ratio                     : 16:9
Frame rate mode                          : Constant
Frame rate                               : 29.970 (30000/1001) fps
Color space                              : YUV
Chroma subsampling                       : 4:2:0
Bit depth                                : 8 bits
Scan type                                : Progressive
Bits/(Pixel*Frame)                       : 0.085
Stream size                              : 192 MiB (95%)
Language                                 : English
Encoded date                             : UTC 2013-10-13 21:00:04
Tagged date                              : UTC 2013-10-13 21:00:11
Color range                              : Limited
Color primaries                          : BT.709
Transfer characteristics                 : BT.709
Matrix coefficients                      : BT.709

Audio
ID                                       : 2
Format                                   : AAC
Format/Info                              : Advanced Audio Codec
Format profile                           : LC
Codec ID                                 : 40
Duration                                 : 5mn 5s
Source duration                          : 5mn 5s
Bit rate mode                            : Constant
Bit rate                                 : 256 Kbps
Channel(s)                               : 2 channels
Channel positions                        : Front: L R
Sampling rate                            : 44.1 KHz
Frame rate                               : 43.066 fps (1024 spf)
Compression mode                         : Lossy
Stream size                              : 9.06 MiB (5%)
Source stream size                       : 9.06 MiB (5%)
Language                                 : English
Encoded date                             : UTC 2013-10-13 21:00:04
Tagged date                              : UTC 2013-10-13 21:00:11

Other
ID                                       : 3
Type                                     : Time code
Format                                   : QuickTime TC
Duration                                 : 5mn 5s
Time code of first frame                 : 00:00:00;00
Time code, striped                       : Yes
Language                                 : English
Encoded date                             : UTC 2013-10-13 21:00:11
Tagged date                              : UTC 2013-10-13 21:00:11



                        

full massage sex

massage-love in Videos