spytug.13.11.30.girl.1.mp4 massage

 massage

Download: http://rapidgator.net/file/2e90990341e8fadb8931353729401846/orm_kbm34i.7z.html
Archive key: orm
Technical details

General
Complete name                            : /tmp/spytug.13.11.30.girl.1.mp4/spytug.13.11.30.girl.1.mp4
Format                                   : MPEG-4
Format profile                           : QuickTime
Codec ID                                 : qt   2005.03 (qt  )
File size                                : 381 MiB
Duration                                 : 9mn 53s
Overall bit rate                         : 5 388 Kbps
Movie name                               : SpyTug23-G1
Album/Performer                          : David Graves
Description                              : This video is about SpyTug23-G1
Encoded date                             : UTC 2013-10-02 17:19:42
Tagged date                              : UTC 2013-10-02 20:05:26
Writing library                          : Apple QuickTime
com.apple.quicktime.author               : David Graves
com.apple.quicktime.keywords             : SpyTug
com.apple.quicktime.title                : SpyTug23-G1
Media/UUID                               : 37658638-07E3-4A14-B89E-65398D18564D
Keyword                                  : SpyTug

Video
ID                                       : 1
Format                                   : AVC
Format/Info                              : Advanced Video Codec
Format profile                           : Main@L4
Format settings, CABAC                   : No
Format settings, ReFrames                : 2 frames
Format settings, GOP                     : M=2, N=24
Codec ID                                 : avc1
Codec ID/Info                            : Advanced Video Coding
Duration                                 : 9mn 53s
Bit rate                                 : 5 133 Kbps
Width                                    : 1 920 pixels
Clean aperture width                     : 1 888 pixels
Height                                   : 1 080 pixels
Clean aperture height                    : 1 062 pixels
Display aspect ratio                     : 16:9
Frame rate mode                          : Constant
Frame rate                               : 29.970 (30000/1001) fps
Color space                              : YUV
Chroma subsampling                       : 4:2:0
Bit depth                                : 8 bits
Scan type                                : Progressive
Bits/(Pixel*Frame)                       : 0.083
Stream size                              : 363 MiB (95%)
Language                                 : English
Encoded date                             : UTC 2013-10-02 20:05:12
Tagged date                              : UTC 2013-10-02 20:05:26
Color range                              : Limited
Color primaries                          : BT.709
Transfer characteristics                 : BT.709
Matrix coefficients                      : BT.709

Audio
ID                                       : 2
Format                                   : AAC
Format/Info                              : Advanced Audio Codec
Format profile                           : LC
Codec ID                                 : 40
Duration                                 : 9mn 53s
Source duration                          : 9mn 53s
Bit rate mode                            : Constant
Bit rate                                 : 256 Kbps
Channel(s)                               : 2 channels
Channel positions                        : Front: L R
Sampling rate                            : 44.1 KHz
Frame rate                               : 43.066 fps (1024 spf)
Compression mode                         : Lossy
Stream size                              : 17.7 MiB (5%)
Source stream size                       : 17.7 MiB (5%)
Language                                 : English
Encoded date                             : UTC 2013-10-02 20:05:12
Tagged date                              : UTC 2013-10-02 20:05:26

Other
ID                                       : 3
Type                                     : Time code
Format                                   : QuickTime TC
Duration                                 : 9mn 53s
Time code of first frame                 : 00:00:00;00
Time code, striped                       : Yes
Language                                 : English
Encoded date                             : UTC 2013-10-02 20:05:26
Tagged date                              : UTC 2013-10-02 20:05:26



                        

massage

massage-videos in Massage