masssge sex spytug.13.10.19.girl.1.mp4

 masssge sex

Download:
Archive key: s1g1
Technical details

General
Complete name                            : /tmp/spytug.13.10.19.girl.1.mp4/spytug.13.10.19.girl.1.mp4
Format                                   : MPEG-4
Format profile                           : QuickTime
Codec ID                                 : qt   2005.03 (qt  )
File size                                : 250 MiB
Duration                                 : 6mn 30s
Overall bit rate                         : 5 368 Kbps
Movie name                               : SpyTug11-G1
Album/Performer                          : David Graves
Description                              : This video is about SpyTug11-G1
Encoded date                             : UTC 2013-09-10 01:05:08
Tagged date                              : UTC 2013-09-10 02:20:57
Writing library                          : Apple QuickTime
com.apple.quicktime.author               : David Graves
com.apple.quicktime.keywords             : SpyTug
com.apple.quicktime.title                : SpyTug11-G1
Media/UUID                               : 3803B46A-4B2F-432D-9D6E-65A8054E9128
Keyword                                  : SpyTug

Video
ID                                       : 1
Format                                   : AVC
Format/Info                              : Advanced Video Codec
Format profile                           : Main@L4
Format settings, CABAC                   : No
Format settings, ReFrames                : 2 frames
Format settings, GOP                     : M=2, N=24
Codec ID                                 : avc1
Codec ID/Info                            : Advanced Video Coding
Duration                                 : 6mn 30s
Bit rate                                 : 5 111 Kbps
Width                                    : 1 920 pixels
Clean aperture width                     : 1 888 pixels
Height                                   : 1 080 pixels
Clean aperture height                    : 1 062 pixels
Display aspect ratio                     : 16:9
Frame rate mode                          : Constant
Frame rate                               : 29.970 (30000/1001) fps
Color space                              : YUV
Chroma subsampling                       : 4:2:0
Bit depth                                : 8 bits
Scan type                                : Progressive
Bits/(Pixel*Frame)                       : 0.082
Stream size                              : 238 MiB (95%)
Language                                 : English
Encoded date                             : UTC 2013-09-10 02:20:48
Tagged date                              : UTC 2013-09-10 02:20:57
Color range                              : Limited
Color primaries                          : BT.709
Transfer characteristics                 : BT.709
Matrix coefficients                      : BT.709

Audio
ID                                       : 2
Format                                   : AAC
Format/Info                              : Advanced Audio Codec
Format profile                           : LC
Codec ID                                 : 40
Duration                                 : 6mn 30s
Source duration                          : 6mn 30s
Bit rate mode                            : Constant
Bit rate                                 : 256 Kbps
Channel(s)                               : 2 channels
Channel positions                        : Front: L R
Sampling rate                            : 44.1 KHz
Frame rate                               : 43.066 fps (1024 spf)
Compression mode                         : Lossy
Stream size                              : 11.7 MiB (5%)
Source stream size                       : 11.7 MiB (5%)
Language                                 : English
Encoded date                             : UTC 2013-09-10 02:20:48
Tagged date                              : UTC 2013-09-10 02:20:57

Other
ID                                       : 3
Type                                     : Time code
Format                                   : QuickTime TC
Duration                                 : 6mn 30s
Time code of first frame                 : 00:00:00;00
Time code, striped                       : Yes
Language                                 : English
Encoded date                             : UTC 2013-09-10 02:20:57
Tagged date                              : UTC 2013-09-10 02:20:57



                        

masssge sex

massage-love in New