what is tantric massage therapy spytug.13.10.12.girl.1.mp4

 what is tantric massage therapy

Download: http://rapidgator.net/file/cabfab68f8b89ca244d40daf328d09f2/7qgk_r3qx.7z.html
Archive key: 7qgk
Technical details

General
Complete name                            : /tmp/spytug.13.10.12.girl.1.mp4/spytug.13.10.12.girl.1.mp4
Format                                   : MPEG-4
Format profile                           : QuickTime
Codec ID                                 : qt   2005.03 (qt  )
File size                                : 379 MiB
Duration                                 : 10mn 16s
Overall bit rate                         : 5 163 Kbps
Movie name                               : SpyTug9-G1
Album/Performer                          : David Graves
Description                              : This video is about SpyTug9-G1
Encoded date                             : UTC 2014-02-15 00:43:56
Tagged date                              : UTC 2014-02-15 01:30:31
Writing library                          : Apple QuickTime
com.apple.quicktime.author               : David Graves
com.apple.quicktime.keywords             : SpyTug
com.apple.quicktime.title                : SpyTug9-G1
Media/UUID                               : E9F8B389-43B9-474D-B685-4C3C0A3A6CAF
Keyword                                  : SpyTug

Video
ID                                       : 1
Format                                   : AVC
Format/Info                              : Advanced Video Codec
Format profile                           : Main@L4
Format settings, CABAC                   : No
Format settings, ReFrames                : 2 frames
Format settings, GOP                     : M=2, N=24
Codec ID                                 : avc1
Codec ID/Info                            : Advanced Video Coding
Duration                                 : 10mn 16s
Bit rate                                 : 4 908 Kbps
Width                                    : 1 920 pixels
Clean aperture width                     : 1 888 pixels
Height                                   : 1 080 pixels
Clean aperture height                    : 1 062 pixels
Display aspect ratio                     : 16:9
Frame rate mode                          : Constant
Frame rate                               : 29.970 (30000/1001) fps
Color space                              : YUV
Chroma subsampling                       : 4:2:0
Bit depth                                : 8 bits
Scan type                                : Progressive
Bits/(Pixel*Frame)                       : 0.079
Stream size                              : 361 MiB (95%)
Language                                 : English
Encoded date                             : UTC 2014-02-15 01:30:17
Tagged date                              : UTC 2014-02-15 01:30:31
Color range                              : Limited
Color primaries                          : BT.709
Transfer characteristics                 : BT.709
Matrix coefficients                      : BT.709

Audio
ID                                       : 2
Format                                   : AAC
Format/Info                              : Advanced Audio Codec
Format profile                           : LC
Codec ID                                 : 40
Duration                                 : 10mn 16s
Source duration                          : 10mn 16s
Bit rate mode                            : Constant
Bit rate                                 : 256 Kbps
Channel(s)                               : 2 channels
Channel positions                        : Front: L R
Sampling rate                            : 44.1 KHz
Frame rate                               : 43.066 fps (1024 spf)
Compression mode                         : Lossy
Stream size                              : 18.3 MiB (5%)
Source stream size                       : 18.3 MiB (5%)
Language                                 : English
Encoded date                             : UTC 2014-02-15 01:30:17
Tagged date                              : UTC 2014-02-15 01:30:31

Other
ID                                       : 3
Type                                     : Time code
Format                                   : QuickTime TC
Duration                                 : 10mn 16s
Time code of first frame                 : 00:00:00;00
Time code, striped                       : Yes
Language                                 : English
Encoded date                             : UTC 2014-02-15 01:30:31
Tagged date                              : UTC 2014-02-15 01:30:31



                        

what is tantric massage therapy

massage-love in Massage